PDF Archive

Easily share your PDF documents with your contacts, on the Web and Social Networks.

Send a file File manager PDF Toolbox Search Help Contact



FILEINFO .pdf



Original filename: FILEINFO.pdf

This PDF 1.4 document has been generated by VeryPDF Free Text To PDF Converter v1.5 / VeryPDF.com Inc (http://www.verypdf.com), and has been sent on pdf-archive.com on 09/08/2015 at 00:08, from IP address 24.170.x.x. The current document download page has been viewed 315 times.
File size: 29 KB (29 pages).
Privacy: public file




Download original PDF file









Document preview


General
Complete name
: C:\User
s\brandon\Desktop\UTorrent DL\Ultimate Fighting Ch
ampionship (Events 1-13)\2)Brief UFC History.pdf
Format
: PDF
Format version
: 1.4
File size
: 24.2 KiB
Text
Format

: PDF

General
Complete name
: C:\User
s\brandon\Desktop\UTorrent DL\Ultimate Fighting Ch
ampionship (Events 1-13)\history2.jpg
Format
: JPEG
File size
: 318 KiB
Image
Format
Width
xels
Height
xels
Color space
Chroma subsampling
Bit depth
Compression mode
Stream size
(100%)

: JPEG
: 1 440 pi
: 2 429 pi
:
:
:
:
:

YUV
4:2:0
8 bits
Lossy
318 KiB

General
Complete name
: C:\User
s\brandon\Desktop\UTorrent DL\Ultimate Fighting Ch
ampionship (Events 1-13)\INFO.rtf
File size
: 1.84 KiB
General
Complete name
: C:\User
s\brandon\Desktop\UTorrent DL\Ultimate Fighting Ch

ampionship (Events 1-13)\The-Ultimate-Fighting-Cha
mpionship.jpg
Format
: JPEG
File size
: 533 KiB
Image
Format
Width
xels
Height
xels
Color space
Chroma subsampling
Bit depth
Compression mode
Stream size
(100%)

: JPEG
: 1 260 pi
: 1 240 pi
:
:
:
:
:

YUV
4:2:0
8 bits
Lossy
533 KiB

General
Complete name
: C:\User
s\brandon\Desktop\UTorrent DL\Ultimate Fighting Ch
ampionship (Events 1-13)\UFC 1 The Beginning (1993
).mp4
Format
: MPEG-4
Format profile
: Base Med
ia
Codec ID
: isom
File size
: 179 MiB
Duration
: 1h 14mn
Overall bit rate mode
: Variable
Overall bit rate

: 335 Kbps

Encoded date
-07-05 03:21:15
Tagged date
-07-06 03:21:22

: UTC 2012

Video
ID
Format
Format/Info

: UTC 2012

: 1
: AVC
: Advanced

Video
Format
1
Format
Format

Codec
profile

: High@L3.

settings, CABAC
settings, ReFrames

: Yes
: 4 frames

Codec ID
Codec ID/Info
Video Coding
Duration
Bit rate

: avc1
: Advanced

Maximum bit rate

: 509 Kbps

Width
ls
Height
ls
Display aspect ratio
Frame rate mode

: 320 pixe

Frame rate
ps
Color space
Chroma subsampling
Bit depth
Scan type
ive
Bits/(Pixel*Frame)
Stream size
(63%)
Writing library
coder
Encoded date
-07-05 03:21:15
Tagged date
-07-05 03:21:21

: 25.000 f

Audio
ID
Format
Format/Info

: 1h 14mn
: 212 Kbps

: 240 pixe
: 4:3
: Constant

:
:
:
:

YUV
4:2:0
8 bits
Progress

: 0.110
: 113 MiB
: Vimeo En
: UTC 2012
: UTC 2012

: 2
: AAC
: Advanced

Audio Codec
Format profile
Codec ID
Duration
Bit rate mode

:
:
:
:

Bit rate

: 121 Kbps

Maximum bit rate

: 148 Kbps

Channel(s)
ls
Channel positions
R
Sampling rate

: 2 channe

Compression mode
Stream size
(36%)
Encoded date
-07-05 03:21:19
Tagged date
-07-05 03:21:21

: Lossy
: 64.4 MiB

LC
40
1h 14mn
Variable

: Front: L
: 44.1 KHz

: UTC 2012
: UTC 2012

General
Complete name
: C:\User
s\brandon\Desktop\UTorrent DL\Ultimate Fighting Ch
ampionship (Events 1-13)\UFC 10 The Tournament (19
96).flv
Format
: Flash Vi
deo
File size
: 387 MiB
Duration
: 1h 2mn
Overall bit rate
: 868 Kbps
Tagging application
: Yet Ano
ther Metadata Injector for FLV - Version 1.9
Video
Format
Format/Info
Video Codec

: AVC
: Advanced

Format profile
Format settings, CABAC
Format settings, ReFrames

: High@L3
: Yes
: 4 frames

Codec ID
Duration
Bit rate

: 7
: 1h 2mn
: 713 Kbps

Width
ls
Height
ls
Display aspect ratio
Frame rate mode

: 576 pixe
: 432 pixe
: 4:3
: Constant

Frame rate
: 24.000 f
ps
Color space
: YUV
Chroma subsampling
: 4:2:0
Bit depth
: 8 bits
Scan type
: Progress
ive
Bits/(Pixel*Frame)
: 0.119
Stream size
: 327 MiB
(84%)
Writing library
: x264 cor
e 132
Encoding settings
: cabac=1
/ ref=1 / deblock=1:0:0 / analyse=0x3:0x113 / me=
hex / subme=2 / psy=1 / psy_rd=1.00:0.00 / mixed_r
ef=0 / me_range=16 / chroma_me=1 / trellis=0 / 8x8
dct=1 / cqm=0 / deadzone=21,11 / fast_pskip=1 / ch
roma_qp_offset=0 / threads=36 / lookahead_threads=
3 / sliced_threads=0 / nr=0 / decimate=1 / interla
ced=0 / bluray_compat=0 / constrained_intra=0 / bf
rames=3 / b_pyramid=2 / b_adapt=1 / b_bias=0 / dir
ect=1 / weightb=1 / open_gop=0 / weightp=1 / keyin
t=250 / keyint_min=24 / scenecut=40 / intra_refres
h=0 / rc_lookahead=10 / rc=crf / mbtree=1 / crf=23
.0 / qcomp=0.60 / qpmin=0 / qpmax=69 / qpstep=4 /
ip_ratio=1.40 / aq=1:1.00

Audio
Format
Format/Info
Audio Codec
Format profile
Codec ID
Duration
Bit rate

: AAC
: Advanced
:
:
:
:

LC
10
1h 2mn
126 Kbps

Channel(s)
ls
Channel positions
R
Sampling rate

: 2 channe

Compression mode
Stream size
(15%)

: Lossy
: 59.3 MiB

: Front: L
: 48.0 KHz

General
Complete name
: C:\User
s\brandon\Desktop\UTorrent DL\Ultimate Fighting Ch
ampionship (Events 1-13)\UFC 11 The Proving Ground
(1996).flv
Format
: Flash Vi
deo
File size
: 399 MiB
Duration
: 1h 33mn
Overall bit rate
: 594 Kbps
Tagging application
: Yet Ano
ther Metadata Injector for FLV - Version 1.9
Video
Format
Format/Info
Video Codec
Format profile
1
Format settings, CABAC
Format settings, ReFrames

: AVC
: Advanced
: High@L2.
: Yes
: 4 frames

Codec ID
Duration
Bit rate

: 7
: 1h 28mn
: 526 Kbps

Width
ls
Height
ls
Display aspect ratio
Frame rate mode

: 512 pixe
: 384 pixe
: 4:3
: Constant

Frame rate
: 25.000 f
ps
Color space
: YUV
Chroma subsampling
: 4:2:0
Bit depth
: 8 bits
Scan type
: Progress
ive
Bits/(Pixel*Frame)
: 0.107
Stream size
: 334 MiB
(84%)
Writing library
: x264 cor
e 118
Encoding settings
: cabac=1
/ ref=2 / deblock=1:0:0 / analyse=0x3:0x113 / me=
hex / subme=6 / psy=1 / psy_rd=1.00:0.00 / mixed_r
ef=1 / me_range=16 / chroma_me=1 / trellis=1 / 8x8
dct=1 / cqm=0 / deadzone=21,11 / fast_pskip=1 / ch
roma_qp_offset=-2 / threads=36 / sliced_threads=0
/ nr=0 / decimate=1 / interlaced=0 / bluray_compat
=0 / constrained_intra=0 / bframes=3 / b_pyramid=2
/ b_adapt=1 / b_bias=0 / direct=1 / weightb=1 / o
pen_gop=0 / weightp=1 / keyint=250 / keyint_min=25
/ scenecut=40 / intra_refresh=0 / rc_lookahead=30
/ rc=abr / mbtree=1 / bitrate=526 / ratetol=1.0 /
qcomp=0.60 / qpmin=0 / qpmax=69 / qpstep=4 / ip_r
atio=1.40 / aq=1:1.00
Audio
Format
Format/Info
Audio Codec

: AAC
: Advanced

Format profile
Codec ID
Duration
Bit rate
s
Channel(s)
ls
Channel positions
R
Sampling rate

:
:
:
:

LC
10
1h 33mn
94.5 Kbp

Compression mode
Delay relative to video
Stream size
(16%)

: Lossy
: 40ms
: 63.5 MiB

: 2 channe
: Front: L
: 48.0 KHz

General
Complete name
: C:\User
s\brandon\Desktop\UTorrent DL\Ultimate Fighting Ch
ampionship (Events 1-13)\UFC 12 Judgement Day (199
7).flv
Format
: Flash Vi
deo
File size
: 722 MiB
Duration
: 1h 56mn
Overall bit rate
: 866 Kbps
Tagging application
: Yet Ano
ther Metadata Injector for FLV - Version 1.9
Video
Format
Format/Info
Video Codec
Format profile
Format settings, CABAC
Format settings, ReFrames
Codec ID
Duration
Bit rate

: AVC
: Advanced
: High@L3
: Yes
: 4 frames
: 7
: 1h 56mn
: 711 Kbps

Width
ls
Height
ls
Display aspect ratio
Frame rate mode

: 640 pixe
: 448 pixe
: 1.429
: Constant

Frame rate
: 24.000 f
ps
Color space
: YUV
Chroma subsampling
: 4:2:0
Bit depth
: 8 bits
Scan type
: Progress
ive
Bits/(Pixel*Frame)
: 0.103
Stream size
: 609 MiB
(84%)
Writing library
: x264 cor
e 132
Encoding settings
: cabac=1
/ ref=1 / deblock=1:0:0 / analyse=0x3:0x113 / me=
hex / subme=2 / psy=1 / psy_rd=1.00:0.00 / mixed_r
ef=0 / me_range=16 / chroma_me=1 / trellis=0 / 8x8
dct=1 / cqm=0 / deadzone=21,11 / fast_pskip=1 / ch
roma_qp_offset=0 / threads=36 / lookahead_threads=
3 / sliced_threads=0 / nr=0 / decimate=1 / interla
ced=0 / bluray_compat=0 / constrained_intra=0 / bf
rames=3 / b_pyramid=2 / b_adapt=1 / b_bias=0 / dir
ect=1 / weightb=1 / open_gop=0 / weightp=1 / keyin
t=250 / keyint_min=24 / scenecut=40 / intra_refres
h=0 / rc_lookahead=10 / rc=crf / mbtree=1 / crf=23
.0 / qcomp=0.60 / qpmin=0 / qpmax=69 / qpstep=4 /
ip_ratio=1.40 / aq=1:1.00
Audio
Format
Format/Info
Audio Codec
Format profile
Codec ID
Duration
Bit rate

: AAC
: Advanced
:
:
:
:

LC
10
1h 56mn
126 Kbps


Related documents


PDF Document nexus 9 video converter
PDF Document fileinfo
PDF Document samsung galaxy s video converter
PDF Document samsung instinct video converter
PDF Document htc vigor video converter
PDF Document samsung i900 omnia video converter


Related keywords